В упор / Point Blank (Джо Линч / Joe Lynch) [2019, США, боевик, триллер, криминал, WEB-DLRip-AVC] Dub + Original (eng) + Sub (rus, eng)

Страницы:  1
Ответить
Автор
Сообщение

Stalker oK

Стаж: 9 лет 5 месяцев

Сообщений: 1807

Stalker oK · 12-Июл-19 22:19 (1 месяц 7 дней назад)

В упор
Point Blank
«A Hell of a Day. A Hell of a Pair»
Страна: США
Жанр: боевик, триллер, криминал
Год выпуска: 2019
Продолжительность: 01:26:39
Перевод: Профессиональный (полное дублирование) [Невафильм | Netflix]
Субтитры: русские (форсированные, полные), английские (форсированные, полные, SDH)
Оригинальная аудиодорожка: английский
Режиссер: Джо Линч / Joe Lynch
В ролях: Энтони Маки, Фрэнк Грилло, Марша Гей Харден, Кристиан Кук, Тейона Паррис, Борис МакГайвер, Карли Тамборски, Мин Ван, Маркис Мур, Лиа Хаттон Бисмор
Описание: Чтобы спасти свою беременную жену, медбрат из отделения неотложной помощи объединяется с раненым подозреваемым в убийстве, тем самым вовлекая обоих в гонку со временем, опасными преступниками и продажными полицейскими.

Автор рипа: stalkerok
Сэмпл
Качество видео: WEB-DLRip-AVC | Исходник: Point.Blank.2019.1080p.NF.WEB-DL.Rus.Eng_THD-NTG
Формат видео: MKV
Видео кодек: AVC
Аудио кодек: AC3
Видео: AVC, 2623 Кбит/сек, 1152x482 (2.40:1), 23,976 кадр/сек
Аудио №1: AC3, 448 Кбит/сек, 48 КГц, 5.1 - русский
Аудио №2: AC3, 448 Кбит/сек, 48 КГц, 5.1 - английский
x264/MediaInfo
---[Information] [12.07.2019 21:51:44] x264 [info]: frame I:1017 Avg QP:13.40 size: 67624
---[Information] [12.07.2019 21:51:44] x264 [info]: frame P:28383 Avg QP:15.16 size: 28211
---[Information] [12.07.2019 21:51:44] x264 [info]: frame B:95269 Avg QP:17.77 size: 8775
General
Unique ID : 205279306881808839797025913252001609920 (0x9A6F5B3D994B95E6E43A7A18F53BF8C0)
Complete name : C:\temp\Point Blank\Point.Blank.2019.WEB-DLRip.x264.Rus.Eng.stalkerok.New-Team.mkv
Format : Matroska
Format version : Version 4
File size : 2.13 GiB
Duration : 1 h 26 min
Overall bit rate : 3 522 kb/s
Movie name : Point Blank (2019) | Rip by stalkerok
Encoded date : UTC 2019-07-12 19:05:38
Writing application : mkvmerge v33.1.0 ('Primrose') 64-bit
Writing library : libebml v1.3.7 + libmatroska v1.5.0
Video
ID : 1
Format : AVC
Format/Info : Advanced Video Codec
Format profile : [email protected]
Format settings : CABAC / 12 Ref Frames
Format settings, CABAC : Yes
Format settings, RefFrames : 12 frames
Codec ID : V_MPEG4/ISO/AVC
Duration : 1 h 26 min
Bit rate : 2 624 kb/s
Width : 1 152 pixels
Height : 482 pixels
Display aspect ratio : 2.40:1
Frame rate mode : Constant
Frame rate : 23.976 FPS
Color space : YUV
Chroma subsampling : 4:2:0
Bit depth : 8 bits
Scan type : Progressive
Bits/(Pixel*Frame) : 0.197
Stream size : 1.59 GiB (74%)
Title : Point Blank (2019) | Rip by stalkerok
Writing library : x264 core 157 r2945 72db437
Encoding settings : cabac=1 / ref=12 / deblock=1:-3:-2 / analyse=0x3:0x133 / me=umh / subme=11 / psy=1 / psy_rd=1.00:0.00 / mixed_ref=1 / me_range=32 / chroma_me=1 / trellis=2 / 8x8dct=1 / cqm=0 / deadzone=21,11 / fast_pskip=0 / chroma_qp_offset=-2 / threads=12 / lookahead_threads=3 / sliced_threads=0 / nr=0 / decimate=1 / interlaced=0 / bluray_compat=0 / constrained_intra=0 / bframes=14 / b_pyramid=2 / b_adapt=2 / b_bias=0 / direct=3 / weightb=1 / open_gop=0 / weightp=2 / keyint=240 / keyint_min=23 / scenecut=40 / intra_refresh=0 / rc_lookahead=60 / rc=crf / mbtree=0 / crf=17.2 / qcomp=0.65 / qpmin=0 / qpmax=69 / qpstep=4 / vbv_maxrate=50000 / vbv_bufsize=62500 / crf_max=0.0 / nal_hrd=none / filler=0 / ip_ratio=1.40 / pb_ratio=1.30 / aq=3:0.80
Default : Yes
Forced : No
Audio #1
ID : 2
Format : AC-3
Format/Info : Audio Coding 3
Commercial name : Dolby Digital
Codec ID : A_AC3
Duration : 1 h 26 min
Bit rate mode : Constant
Bit rate : 448 kb/s
Channel(s) : 6 channels
Channel layout : L R C LFE Ls Rs
Sampling rate : 48.0 kHz
Frame rate : 31.250 FPS (1536 SPF)
Bit depth : 16 bits
Compression mode : Lossy
Stream size : 278 MiB (13%)
Language : Russian
Service kind : Complete Main
Default : Yes
Forced : No
Audio #2
ID : 3
Format : AC-3
Format/Info : Audio Coding 3
Commercial name : Dolby Digital
Codec ID : A_AC3
Duration : 1 h 26 min
Bit rate mode : Constant
Bit rate : 448 kb/s
Channel(s) : 6 channels
Channel layout : L R C LFE Ls Rs
Sampling rate : 48.0 kHz
Frame rate : 31.250 FPS (1536 SPF)
Bit depth : 16 bits
Compression mode : Lossy
Stream size : 278 MiB (13%)
Language : English
Service kind : Complete Main
Default : No
Forced : No
Text #1
ID : 4
Format : UTF-8
Codec ID : S_TEXT/UTF8
Codec ID/Info : UTF-8 Plain Text
Duration : 1 h 25 min
Bit rate : 1 b/s
Count of elements : 16
Stream size : 779 Bytes (0%)
Title : Forced
Language : Russian
Default : Yes
Forced : No
Text #2
ID : 5
Format : UTF-8
Codec ID : S_TEXT/UTF8
Codec ID/Info : UTF-8 Plain Text
Duration : 1 h 25 min
Bit rate : 85 b/s
Count of elements : 1146
Stream size : 53.3 KiB (0%)
Title : Full
Language : Russian
Default : No
Forced : No
Text #3
ID : 6
Format : UTF-8
Codec ID : S_TEXT/UTF8
Codec ID/Info : UTF-8 Plain Text
Duration : 22 s 231 ms
Bit rate : 34 b/s
Count of elements : 6
Stream size : 97.0 Bytes (0%)
Title : Forced
Language : English
Default : No
Forced : No
Text #4
ID : 7
Format : UTF-8
Codec ID : S_TEXT/UTF8
Codec ID/Info : UTF-8 Plain Text
Duration : 1 h 19 min
Bit rate : 66 b/s
Count of elements : 1240
Stream size : 38.8 KiB (0%)
Title : Full
Language : English
Default : No
Forced : No
Text #5
ID : 8
Format : UTF-8
Codec ID : S_TEXT/UTF8
Codec ID/Info : UTF-8 Plain Text
Duration : 1 h 21 min
Bit rate : 83 b/s
Count of elements : 1539
Stream size : 49.8 KiB (0%)
Title : SDH
Language : English
Default : No
Forced : No
Скриншоты
Download
Сайт не распространяет и не хранит электронные версии произведений, а лишь предоставляет доступ к создаваемому пользователями каталогу ссылок на торрент-файлы, которые содержат только списки хеш-сумм
Как скачивать? (для скачивания .torrent файлов необходима регистрация)
[Профиль]  [ЛС] 

ИванБурыльник

Стаж: 2 года 1 месяц

Сообщений: 145

ИванБурыльник · 16-Июл-19 09:22 (спустя 3 дня, ред. 16-Июл-19 09:22)

Негр, такой, на обложке: " - Братан.. да не смотри ты этот г(внофильм".
А белый такой: "Да ладно, пусть посмотрит, по лицу же видно что д(лба*б.."
[Профиль]  [ЛС] 

502505

Стаж: 9 лет 7 месяцев

Сообщений: 159

502505 · 16-Июл-19 10:43 (спустя 1 час 21 мин.)

а ещё был "Point Blank" с Микки нашим, Рурком. Где он демонстрировал лучшую форму сразу после "Колонии".
А негр из этого уже надоел. Он по типажу занимает нишу Уилла Смита, но и тот ещё не старый. А зачем нам два Уилла?
[Профиль]  [ЛС] 

ppp5588

Стаж: 9 лет 11 месяцев

Сообщений: 15

ppp5588 · 18-Июл-19 18:26 (спустя 2 дня 7 часов)

ИванБурыльник писал(а):
77678122Негр, такой, на обложке: " - Братан.. да не смотри ты этот г(внофильм".
А белый такой: "Да ладно, пусть посмотрит, по лицу же видно что д(лба*б.."
C головой в порядке?
[Профиль]  [ЛС] 

LALALA

Стаж: 9 лет 7 месяцев

Сообщений: 889

LALALA · 20-Июл-19 20:56 (спустя 2 дня 2 часа)

Есть саундтрек?
[Профиль]  [ЛС] 

jaslove

Стаж: 9 лет 4 месяца

Сообщений: 189


jaslove · 21-Июл-19 22:38 (спустя 1 день 1 час)

ИванБурыльник писал(а):
77678122Негр, такой, на обложке: " - Братан.. да не смотри ты этот г(внофильм".
А белый такой: "Да ладно, пусть посмотрит, по лицу же видно что д(лба*б.."
хорошая шутка!
фильм норм или типичное нетфликсовское?
[Профиль]  [ЛС] 

Valentin__

Стаж: 11 лет 10 месяцев

Сообщений: 306


Valentin__ · 22-Июл-19 01:08 (спустя 2 часа 30 мин.)

ppp5588 писал(а):
77689108
ИванБурыльник писал(а):
77678122Негр, такой, на обложке: " - Братан.. да не смотри ты этот г(внофильм".
А белый такой: "Да ладно, пусть посмотрит, по лицу же видно что д(лба*б.."
C головой в порядке?

а что такого страшного он написал?
[Профиль]  [ЛС] 

ak-74.

Стаж: 5 лет 10 месяцев

Сообщений: 2


ak-74. · 22-Июл-19 13:03 (спустя 11 часов)

ppp5588 писал(а):
77689108
ИванБурыльник писал(а):
77678122Негр, такой, на обложке: " - Братан.. да не смотри ты этот г(внофильм".
А белый такой: "Да ладно, пусть посмотрит, по лицу же видно что д(лба*б.."
C головой в порядке?
....ну ты меня рассмешнил!!!
[Профиль]  [ЛС] 

Nichego999

Стаж: 9 лет 6 месяцев

Сообщений: 3


Nichego999 · 22-Июл-19 19:41 (спустя 6 часов)

ppp5588 писал(а):
77689108
ИванБурыльник писал(а):
77678122Негр, такой, на обложке: " - Братан.. да не смотри ты этот г(внофильм".
А белый такой: "Да ладно, пусть посмотрит, по лицу же видно что д(лба*б.."
C головой в порядке?
а что такого страшного он написал ?
[Профиль]  [ЛС] 

Юрий78

Стаж: 10 лет 1 месяц

Сообщений: 101

Юрий78 · 22-Июл-19 20:30 (спустя 48 мин.)

В главной роли негр? Можно смело не смотреть)
[Профиль]  [ЛС] 

Tyfon

Стаж: 11 лет 4 месяца

Сообщений: 398

Tyfon · 24-Июл-19 14:28 (спустя 1 день 17 часов)

Nichego999 писал(а):
77708243
ppp5588 писал(а):
77689108
ИванБурыльник писал(а):
77678122Негр, такой, на обложке: " - Братан.. да не смотри ты этот г(внофильм".
А белый такой: "Да ладно, пусть посмотрит, по лицу же видно что д(лба*б.."
C головой в порядке?
а что такого страшного он написал ?
Он на белого обиделся
[Профиль]  [ЛС] 

T3M

Стаж: 11 лет

Сообщений: 77

T3M · 24-Июл-19 14:32 (спустя 3 мин.)

трейлер интереснее фильма
им можно и ограничиться)
[Профиль]  [ЛС] 

Nnach

Стаж: 10 лет 2 месяца

Сообщений: 13


Nnach · 30-Июл-19 22:25 (спустя 6 дней)

ИванБурыльник писал(а):
77678122Негр, такой, на обложке: " - Братан.. да не смотри ты этот г(внофильм".
А белый такой: "Да ладно, пусть посмотрит, по лицу же видно что д(лба*б.."
😀😀😀Бро, лови плюс в карму: норма так гэгнул
[Профиль]  [ЛС] 

uwkqkjsahjkhdilHJLDAJLK

Стаж: 6 лет 4 месяца

Сообщений: 151


uwkqkjsahjkhdilHJLDAJLK · 30-Июл-19 22:37 (спустя 11 мин.)

Нормальный боевичок кстати
[Профиль]  [ЛС] 

Smark13

Стаж: 11 лет 6 месяцев

Сообщений: 168


Smark13 · 30-Июл-19 23:44 (спустя 1 час 6 мин.)

ИванБурыльник писал(а):
77678122Негр, такой, на обложке: " - Братан.. да не смотри ты этот г(внофильм".
А белый такой: "Да ладно, пусть посмотрит, по лицу же видно что д(лба*б.."
Может, Бутыльник. Со не найти просто...
[Профиль]  [ЛС] 
 
Ответить
Loading...
Error